«

»

08 2011

【无损音乐】《高桥名人伝説 -魂の16连射-》下载(含视频,图片,文字全介绍)(TTA+BK)(115+Emule)(2011/10/28已续期,有效期31天)

高桥名人简介

【无损音乐】《高桥名人伝説 -魂の16连射-》,视频,图片,文字全介绍。(115+Emule)

本名高桥利幸的高桥名人,1959年5月23日出生于北海道扎潢市,本是Hudson公司的一名员工,该人长得非常有趣儿,下巴特别像大力水手Popeye.拿手的绝技就是,以胳膊肘为支撑点,手指灵巧且近乎神速般的连续点击按键,在所有的射击游戏当中,连续点击按键都是一个必须掌握的技巧.利用这项神技,高桥利幸技压群雄,最为中国玩家所知的便是,最后决赛时,与另一泰斗毛利公信(他的记录是每秒14连射,但实际上是9到10连射)的精彩对决, 随着游戏时间的流逝,毛利公信与高桥利幸的比分差距越来越大,败北,高桥利幸获胜,成为全国家喻户晓的人物,小学生心中不败的偶像,同时也是日本游戏史上第一位活生生的游戏明星,他的知名度超过任何一位游戏制作人,直到今天,人气依然不减当年!~。 在还没有所谓的连发摇杆时代,以每秒钟能手指连按16按键下的“16连射”名噪一时,奉为当时电玩第一高手,而他的16连射也连带催生了“连发摇杆”。而他隶属的HUDSON公司也打铁趁热,在红白机上制作一系列“高桥名人冒险岛”游戏,也是叫好叫座的电玩经典游戏。

【无损音乐】《高桥名人伝説 -魂の16连射-》,视频,图片,文字全介绍。(115+Emule)

转载请注明出处 http://blog.chdzone.cn/20110708675.html

CD图文介绍(来自VeryCD资源)
《高桥名人伝说 -魂の16连射-》[同人音乐][TTA]

中文名: 高桥名人伝説 -魂の16连射-
资源格式: TTA
版本: [同人音乐]
发行时间: 2010年1月27日
地区: 日本
对白语言: 日语
文字语言: 日文

【专辑介绍】
Date: 2010-1-27
Number: HBSR-8014
# ディスク枚数: 1
# レーベル: Beat Shake Records

 

【Artist/Cast】
高桥名人

【歌曲列表】
1. 高桥永世名人・袭位会见
2. スターソルジャー -魂の16连射- 「スターソルジャー」より
3. 冒険岛サンバ!! 「高桥名人の冒険岛」より
4. ウィー・アー・ザ・ボンバーMEEEEEN!! 「ボンバーマン」より
5. I Left My Heart in Rosmarie -思い出のロスマリー- 「チャレンジャー」より
6. ボンバーキングのテーマ 2010 「ボンバーキング」より
7. 一日三食チクワでござる!の巻 「忍者ハットリくん」より
8. Gioco amore! 「迷宫组曲」より
9. 罠だ!走れ!ロードランナーだ! 「ロードランナー」より
10. Bring it on down 「ヘクター’87」より
11. スターソルジャー -魂の16连射-(kors k mix shoot the Lazarus) 「スターソルジャー」より
12. ウィー・アー・ザ・ボンバーMEEEEEN!!(REDALiCE Remix extend bombs) 「ボンバーマン」より
13. I Left My Heart in Rosmarie -思い出のロズマリー-(RoughSketch Remix fiercest train) 「チャレンジャー」より
14. 高桥名人の伝说・次回予告

视频介绍:

优酷播放地址:http://v.youku.com/v_show/id_XMTQ3NzkwODAw.html

在线播放:

 

 

下载地址

115网盘(2011/10/28已续期,有效期31天)

VeryCD下载页面 (资源稀缺)

ed2k链接 (就是VeryCD的链接)

转载请注明出处 http://blog.chdzone.cn/20110708675.html

cue补丁(感谢VeryCD网友提供):
(会用的用,不会用的自己学方法去用,或者干脆不用。实在太笨的还是等MP3源吧)
REM GENRE Game
REM DATE 2010
REM DISCID CD0CD40E
REM COMMENT “ExactAudioCopy v0.99pb5”
PERFORMER “イオシス”
TITLE “高桥名人伝说 -魂の16连射-”
FILE “高桥名人伝说 -魂の16连射-.tta” WAVE
TRACK 01 AUDIO
TITLE “高桥永世名人?袭位会见”
PERFORMER “高桥名人、イオシスの愉快な仲间たち”
INDEX 01 00:00:00
TRACK 02 AUDIO
TITLE “スターソルジャー -魂の16连射-”
PERFORMER “高桥名人”
INDEX 01 04:36:54
TRACK 03 AUDIO
TITLE “冒険岛サンバ!!”
PERFORMER “高桥名人”
INDEX 01 08:06:26
TRACK 04 AUDIO
TITLE “ウィー?アー?ザ?ボンバーMEEEEEN!!”
PERFORMER “高桥名人”
INDEX 01 10:31:51
TRACK 05 AUDIO
TITLE “I Left My Heart in Rosmarie -思い出のロスマリー-”
PERFORMER “ビートまりお?高桥名人”
INDEX 01 15:02:47
TRACK 06 AUDIO
TITLE “ボンバーキングのテーマ 2010”
PERFORMER “ビートまりお?高桥名人”
INDEX 01 19:03:61
TRACK 07 AUDIO
TITLE “一日三食チクワでござる!の巻”
PERFORMER “あゆ?高桥名人”
INDEX 01 23:04:50
TRACK 08 AUDIO
TITLE “Gioco amore!”
PERFORMER “片雾烈火?高桥名人”
INDEX 01 25:37:60
TRACK 09 AUDIO
TITLE “罠だ!走れ!ロードランナーだ!”
PERFORMER “高桥名人”
INDEX 01 31:04:70
TRACK 10 AUDIO
TITLE “Bring it on down”
PERFORMER “高桥名人”
INDEX 01 34:10:13
TRACK 11 AUDIO
TITLE “スターソルジャー -魂の16连射- (kors k mix shoot the Lazarus)”
PERFORMER “kors k”
INDEX 01 38:33:37
TRACK 12 AUDIO
TITLE “ウィー?アー?ザ?ボンバーMEEEEEN!! (REDALiCE Remix extend bombs)”
PERFORMER “REDALiCE”
INDEX 01 43:59:34
TRACK 13 AUDIO
TITLE “I Left My Heart in Rosmarie -思い出のロスマリー- (RoughSketch Remix fiercest…”
PERFORMER “RoughSketch”
INDEX 01 48:07:72
TRACK 14 AUDIO
TITLE “高桥名人の伝说?次回予告”
PERFORMER “高桥名人、龙波しゅういち”
INDEX 01 52:50:52

转载请注明出处 http://blog.chdzone.cn/20110708675.html

1 comment

  1. Wing

    想起動畫 NieA_7 裡頭的連打對決,最厲害的是老婆婆………的帕金森。

发表评论

电子邮件地址不会被公开。 必填项已用*标注